#TITLE:Cool Girl;
#SUBTITLE:;
#ARTIST:Jewelry;
#TITLETRANSLIT:Cool Girl;
#SUBTITLETRANSLIT:;
#ARTISTTRANSLIT:Jewelry;
#CREDIT:;
#BANNER:Cool Girl-bn.png;
#BACKGROUND:Cool Girl-bg.png;
#LYRICSPATH:;
#CDTITLE:pm4cd.png;
#MUSIC:Cool Girl.mp3;
#OFFSET:-0.100;
#SAMPLESTART:65.910;
#SAMPLELENGTH:20.000;
#SELECTABLE:YES;
#BPMS:0.000=120.040,163.375=58.040,170.750=120.040;
#STOPS:;
#BGCHANGES:;
// cache tags:
#FIRSTBEAT:2.750;
#LASTBEAT:401.750;
#SONGFILENAME:Songs/Music V.I.P ^_^/Cool Girl/Cool Girl.sm;
#HASMUSIC:1;
#HASBANNER:1;
#MUSICLENGTH:209.301;
// end cache tags

//---------------dance-single - ----------------
#NOTES:
     dance-single:
     :
     Hard:
     11:
     1.000,1.000,1.000,0.893,1.000,867.000,338.000,187.000,0.000,235.000:
0000
0000
0000
0000
0000
0000
0000
0000
0000
0000
0000
1001
0000
0000
0000
0010
,
0000
1000
0000
0100
0000
0010
0000
0001
0010
0100
0010
0101
0000
0000
0000
1000
,
0100
0010
0100
0010
0001
0010
0100
1000
0100
0010
1000
0011
0000
0000
0000
1000
,
0100
1000
0000
0001
0010
0001
0000
0100
0010
0100
0020
0000
0000
0000
0000
0000
,
0000
0000
0000
0000
0000
0100
0000
1131
0000
0000
0000
1111
0000
1000
0000
0101
,
0000
0010
0000
1100
0000
0100
0000
0101
0000
0010
0000
1100
0000
0100
0010
1001
,
0000
0001
0010
1100
0000
1000
0100
0011
0000
0100
0000
0101
0000
1000
0000
0110
,
0000
0001
0000
0011
0000
0010
0000
1010
0000
0100
0000
1011
0000
0000
0100
1011
,
0000
0000
0100
1011
0000
0000
0100
1011
0000
0000
0100
1111
0000
1000
0000
0100
,
0000
0010
0000
0101
0000
0010
0000
0001
0000
0010
0000
1100
0000
1000
0000
0100
,
0000
0010
0000
0101
0000
0001
0000
0010
0000
1000
0000
0110
0000
0010
0000
0001
,
0000
1000
0000
0101
0000
0001
0000
0010
0000
1000
0000
1100
0000
0000
0001
1110
,
0000
0000
0010
1101
0000
0000
1000
0111
0000
0000
0001
1111
0000
1000
0000
0010
,
0000
0100
0000
0011
0000
0010
0000
1000
0000
0100
0000
1010
0000
0001
0000
1000
,
0000
0100
0000
0011
0000
0100
0000
0010
0000
0100
0000
1010
0000
0010
0000
0100
,
0000
1000
0000
1001
0000
1000
0000
0010
0000
0100
0000
1101
0000
0000
0001
1110
,
0000
0000
0010
1101
0000
0000
1000
0111
0000
0000
0001
1111
0000
0000
0000
0100
,
0000
0010
0000
0101
0000
0010
0000
1000
0000
0100
0000
0011
0000
0100
0000
0001
,
0000
0010
0000
1100
0000
0100
0000
0010
0000
1000
0000
1001
0000
0001
0000
0100
,
0000
0010
0000
0110
0000
1000
0000
0100
0000
0010
0000
1101
0000
0000
0000
1101
,
0000
0000
0010
1101
0000
0000
1000
2220
0000
3330
0000
1111
0000
0001
0000
0101
,
0000
0001
0000
1010
0000
0100
0000
0011
0000
1000
0000
0101
0000
0010
0000
1100
,
0000
1000
0000
1001
0000
0100
0000
0101
0000
0010
0000
0110
0000
1000
0000
1100
,
0000
0001
0000
0011
0000
0100
0000
1010
0000
0100
0000
0111
0000
0000
0100
1110
,
0000
0000
1000
1101
0000
0000
0010
0111
0000
0000
1000
1111
0000
0202
0000
0320
,
0000
2030
0000
3200
0000
0320
0000
0230
0000
2300
0000
3223
0000
0002
0000
2333
,
0000
0200
0000
0302
0000
0023
0000
0230
0000
0320
0000
3232
0000
2000
0000
3323
,
0000
0000
0000
2000
0000
0000
0000
0000
0000
3200
0000
0000
0000
0000
0000
0302
0000
0000
0000
0000
0000
0203
0000
0000
0000
0000
0000
2300
0000
0000
0000
0000
3030
1101
0000
0000
0010
0000
0000
0100
0000
0000
0000
0000
0000
1110
0000
0000
,
0001
0100
0000
0111
1000
0010
0000
1011
0100
0001
0000
1111
0000
0202
0000
0023
,
0000
0032
0000
2003
0000
3020
0000
0032
0000
2323
0000
0032
0000
0023
0000
0230
,
0000
0302
0000
0203
0000
0320
0000
0230
0000
3322
0000
0230
0000
2300
0000
3020
,
0000
0000
0000
0230
0000
0000
0000
0000
0000
0320
0000
0000
0000
0000
0000
2030
0000
0000
0000
0000
0000
3200
0000
0000
0000
0000
0000
0320
0000
0000
0000
0000
0033
1110
0000
0000
0000
0000
0000
0000
0000
0000
0000
0000
0000
0111
0000
0000
,
0000
0000
0000
1011
0000
0000
0000
1101
0000
0000
0000
1111
0000
1000
0000
0010
,
0000
0100
0000
0011
0000
0100
0000
0001
0000
0010
0000
1100
0000
0100
0000
0010
,
0000
1000
0000
0101
0000
0010
0000
0001
0000
1000
0000
0011
0000
0010
0000
0100
,
0000
1000
0000
1100
0000
0100
0000
0010
0000
0001
0000
0101
0000
0100
0010
0011
,
0000
1000
0100
1100
0000
0010
0001
0011
0000
0100
0000
1111
0000
0001
0000
0100
,
0000
0010
0000
1100
0000
0001
0000
0100
0000
1000
0000
1100
0000
0010
0000
0100
,
0000
0001
0000
0110
0000
1000
0000
0100
0000
0010
0000
1001
0000
1000
0000
0100
,
0000
0010
0000
0011
0000
0010
0000
0100
0000
1000
0000
1001
0000
0010
0001
1001
,
0000
0000
0000
0000
0100
0000
0000
0000
1000
0000
0000
0000
1010
0000
0000
0000
0000
0000
0000
0000
0100
0000
0000
0000
0010
0000
0000
0000
0110
0000
0000
0000
0000
0000
0000
0000
0001
0000
0000
0000
0000
0000
0000
0000
1111
0000
0000
0000
0000
0000
0000
0000
0000
0000
0020
0000
0000
0000
0000
0100
0000
0000
0000
0000
,
1100
0000
0000
0000
0000
0000
0000
0000
0101
0000
0000
0000
0000
1000
0000
1100
0030
0000
0000
0000
0000
0000
0001
0000
0000
0000
0010
0000
0000
0000
1100
0000
0000
0000
0010
0000
0000
0000
1001
0000
0000
0000
0010
0000
0000
0000
1100
0000
0000
0000
0010
0000
0000
0000
0001
0000
0000
0000
0010
0000
0000
0000
1100
0000
,
0000
1000
0000
0100
0000
0010
0000
0101
0000
0001
0000
0010
0000
0100
0000
1001
0000
1000
0000
1110
0000
0000
1111
0000
0000
0000
0000
0000
0000
0000
0010
0000
,
0000
1000
0000
0101
0000
0001
0000
0010
0000
1000
0000
0011
0000
0100
0000
0001
,
0000
0010
0000
1100
0000
1000
0000
0100
0000
0010
0000
1001
0000
0010
0000
0110
,
0000
0010
0000
1001
0000
1000
0000
0100
0000
0010
0000
0111
0000
0000
1000
1110
,
0000
0000
0001
0111
0000
0000
0010
1011
0000
0000
0100
1111
0000
2020
0000
0232
,
0003
0302
0000
0223
0300
0230
0000
0322
0030
3023
0000
2200
3000
0302
0000
2203
,
3000
2300
0000
3202
0003
0302
0000
2203
3000
2300
0000
3232
0000
2300
0000
3220
,
0300
0000
0000
0230
0000
0000
0000
0000
0000
2320
0000
0000
0030
0000
0000
3020
0000
0000
0000
0000
0000
2230
0000
0000
0300
0000
0000
3200
0000
0000
0000
0000
0303
2222
0000
0000
3333
0000
0000
0000
0000
0000
0000
0000
0000
2222
0000
0000
,
3333
0000
0000
2222
3333
0000
0000
2222
3333
0000
0000
2222
3333
0001
0000
0011
,
0000
0010
0000
1010
0000
1000
0000
0110
0000
0010
0000
0101
0000
1000
0000
1100
,
0000
0010
0000
0110
0000
0001
0000
0101
0000
0010
0000
1100
0000
1000
0000
1001
,
0000
0001
0000
0101
0000
0010
0000
1100
0000
0010
0000
1101
0000
0000
0000
1110
,
0000
0000
0000
0001
0000
0000
0000
0000
0000
0020
0000
0000
0000
0000
0000
2000
0000
0000
0000
0000
3000
1101
0000
0000
0030
0000
0000
0111
0000
0000
0000
0000
0000
0000
0000
0000
0000
0000
0000
0110
0000
0000
0000
0000
0000
1100
0000
0000
,
0000
0110
0000
0011
0000
0110
0000
1000
0000
0100
0000
1111
0000
0001
0000
0101
,
0000
0010
0000
1100
0000
0100
0000
0101
0000
0010
0000
1100
0000
0001
0000
0110
,
0000
0100
0000
0101
0000
0001
0000
1001
0000
0100
0000
0110
0000
0010
0000
1010
,
0000
1000
0000
0011
0000
0100
0000
0110
0000
0001
0000
1100
0000
0010
0000
0101
,
0000
0001
0010
0110
0000
0100
1000
1101
0000
0010
0001
1111
0000
0000
0000
0110
,
0000
1010
0000
0101
0000
0110
0000
0011
0000
1100
0000
0101
0000
1010
0000
1100
,
0000
0110
0000
1100
0000
0011
0000
0101
0000
0011
0000
1010
0000
1100
0000
1010
,
0000
1001
0000
0110
0000
1001
0000
1010
0000
0101
0000
1010
0000
0011
0000
0110
,
0000
1100
0000
0110
0000
0011
0000
0110
0000
1100
0000
0111
1000
0100
1000
0001
,
0010
0100
1000
0100
1000
0100
0010
0001
0010
0100
1000
0100
0010
0001
0100
0010
,
0001
0010
0100
1000
0010
0100
1000
0100
0010
0001
0010
0001
0010
0001
0010
0100
,
1000
0100
1000
0100
1000
0100
0010
0001
0010
0100
0010
0100
1000
0100
0010
0100
,
0010
0100
0010
0001
0010
0100
1000
0010
1000
0100
0010
0001
0100
0010
1000
0001
,
0010
0100
0001
1000
0100
0010
1000
0100
0010
0001
0010
0001
0010
0100
1000
0100
,
1000
0100
0010
0001
0010
0100
0001
0100
0001
0010
0100
1000
0010
1000
0010
1000
,
0100
0010
0001
1000
0001
1000
0100
0001
0010
1000
0100
0001
0100
0010
1000
0001
,
0010
0100
1000
0100
0010
0001
0010
0001
0010
0100
1000
0202
0000
0010
0000
1000
,
0000
0010
0000
1000
0000
0010
0000
1000
0000
0010
0000
2323
0000
0001
0000
0100
,
0000
0000
0000
0001
0000
0000
0000
0000
0000
0100
0000
0000
0000
0000
0000
0001
0000
0000
0000
0000
0000
0100
0000
0000
0000
0000
0000
0001
0000
0000
0000
0000
3030
0220
0000
0000
0000
0000
0000
0001
0000
0000
0000
0000
0000
1000
0000
0000
,
0000
0000
0000
0001
0000
0000
0000
0000
0000
1000
0000
0000
0000
0000
0000
0001
0000
0000
0000
0000
0000
1000
0000
0000
0000
0000
0000
0001
0000
0000
0000
0000
0330
1111
0000
0000
0000
0000
0000
0000
0000
0000
0000
0000
0000
1111
0000
0000
,
0000
0000
0000
1111
0000
0000
0000
1111
0000
0000
0000
1111
0000
0222
0300
2000
,
3000
0200
0300
2000
3000
0200
0300
2000
3000
2233
0000
0020
0030
0002
0003
0020
,
0030
0002
0003
0020
0030
0002
0003
0020
3330
0002
0003
2202
0300
0020
0030
0200
,
0300
0000
0000
0020
0000
0000
0030
0000
0000
0200
0000
0000
0300
0000
0000
0020
0000
0000
0030
0000
0000
0200
0000
0000
0300
0000
3003
0000
0000
0000
0000
0000
0000
1111
0000
0000
0000
0000
0000
0000
0000
0000
0000
0000
0000
1011
0000
0000
,
0000
1111
0000
0000
0000
0000
0000
1110
0000
1111
0000
0000
0000
1110
0000
0111
,
0000
1101
0000
1011
0000
0012
0000
0123
0000
1230
0000
2311
0000
0000
0000
0200
,
0000
0320
3000
0230
0000
2300
0000
3200
0000
0320
0000
0032
0000
0023
0000
0230
,
0000
0320
0000
0230
0000
2300
0000
3002
0000
1113
0000
0000
0000
2000
0000
3020
,
0000
1231
0000
0320
0000
0032
0000
0023
0000
1231
0000
0302
0000
0023
0000
0232
,
0000
0000
2323
0000
0000
0000
3232
0000
0000
0000
2323
0000
0000
0000
0202
0000
3030
0000
2323
0000
0000
3030
1111
0000
0000
0000
0000
0000
0000
0000
0101
0000
,
0000
0011
0000
1101
0000
1100
0000
0110
0000
0011
0000
1110
0000
0011
0000
0101
,
0000
1100
0000
1011
0000
1100
0000
0110
0000
0101
0000
1110
0000
1001
0000
0110
,
0000
1010
0000
1101
0000
0101
0000
1010
0000
0110
0000
1011
0000
1100
0000
1010
,
0000
1100
0000
1011
0000
0110
0000
1001
0000
0101
0000
1111
0000
0000
0000
0110
,
0000
0011
0000
1011
0000
0101
0000
1001
0000
1100
0000
0111
0000
1100
0000
0110
,
0000
0011
0000
1110
0000
0011
0000
1010
0000
1001
0000
1101
0000
0011
0000
1010
,
0000
1001
0000
0111
0000
1100
0000
0011
0000
1001
0000
1011
0000
1000
0100
1011
,
0000
0001
0010
1101
0000
0100
1000
0111
0000
0010
0001
1111
0000
0000
0000
0111
,
0000
1100
0000
1011
0000
0110
0000
1101
0000
0011
0000
1110
0000
1001
0000
1101
,
0000
0011
0000
1110
0000
0110
0000
0111
0000
1100
0000
1011
0000
0101
0000
1110
,
0000
0011
0000
1101
0000
1100
0000
0111
0000
1001
0000
0112
0000
0110
0000
1110
,
0000
0000
0000
1010
0000
0000
0000
0000
0000
1110
0000
0000
0000
0000
0000
1010
0000
0000
0000
0000
0000
1110
0000
0000
0000
0000
0000
1100
0000
0000
0000
0003
0000
1111
0000
0000
0000
0000
0000
1000
0000
0000
0000
0000
0000
0100
0000
0000
,
0000
0010
0000
1001
0000
0010
0000
0100
0000
1000
0000
0101
0000
0010
0000
0001
,
0000
0010
0000
0101
0000
1000
0000
0100
0000
0010
0000
0011
0000
0010
0000
0100
,
0000
1000
0000
0100
0000
0010
0000
0001
1000
0001
2000
0000
0000
0000
0000
0000
,
0000
0000
0000
0000
0000
0001
0100
3111
0000
0000
0000
0000
0000
0000
0000
0000
;

//---------------dance-single - ----------------
#NOTES:
     dance-single:
     :
     Medium:
     1:
     0.000,0.000,0.000,0.000,0.000,0.000,0.000,0.000,0.000,0.000:
0000
0000
0000
0000
;

//---------------dance-single - ----------------
#NOTES:
     dance-single:
     :
     Easy:
     1:
     0.000,0.000,0.000,0.000,0.000,0.000,0.000,0.000,0.000,0.000:
0000
0000
0000
0000
;
